justified   Riddick   tupac   arrow   nickelback   bruno mars   game of thrones   luke bryan   300 rise of an empire   compilation   taylor swift   Robocop (2014)   arrow s02e20   nelly   that awkward moment   once upon a time   cosmos   pompeii   ita   arrow 1   lil wayne   winrar   true detective   بنطلون جولييت   future   Revenge   classic   miley cyrus   john legend   game of thrones s04e03   chris brown   rick ross   Rio 2   captain phillips   the.hobbit   yify   wiz khalifa   THE BIG BANG THEORY   robocop   captain america   thor the dark world   The Hobbit   iTALiAN   happy   r kelly   2014   2013 nl   windows 8   Belle   Embrace Embrace   the lego movie   resurrection   47.Ronin   anchorman 2   captain america the winter soldier   ride along   prince   divergent   The Walking Dead   windows 8.1   metallica   the wolf of wall street   Eminem   rihanna   1080p   thor   wwe   lesbian   devil may cry   50 cent   beyonce   47 Ronin   jennifer lopez   wwe wrestlemania   grimm   windows 7   noah   2013   need for speed   enrique iglesias   Sketch   non stop   usher   drake   queen   love   criminal minds   the 100   french   trey songz   revolution   shameless   the nut job   lone survivor   katy perry   frozen   pitbull   dark horse   Pink   blake shelton  


The Final Destination 4 (2009) DVDRip XviD-MAX

Torrent Download

 

User:
 
Added:4 years ago
Peers:472 seeds 65 leeches
Last Update:
2 years ago
Health:
 
Total size:
800.56 MB
Category:
Hash:
8ebcf4fd383d1d73116c9b2c4afe3420c60d0695
Tracker:
udp://tracker.publicbt.com:80/announce
Rapidshare:
This file may be available on rapidshare.
Share:
 
 
 
 
Torrent Rating: 8.8/10 (61 votes cast)
 
Click here to
Download
up to 10X FASTER
The Final Destination 4 (2009) DVDRip XviD-MAX

Description
The Final Destination 4 (2009) DVDRip XviD-MAX
Format : AVI
Format/Info : Audio Video Interleave
File size : 800 MiB
Duration : 1h 21mn
Overall bit rate : 1 368 Kbps
Writing application : VirtualDubMod 1.5.10.2 (build 2542/release)
Writing library : VirtualDubMod build 2542/release
Original source form : MAX TORRENTZ
Copyright : SIGISMUNT
Video
Format : xvid
Codec ID : xvid
Duration : 1h 21mn
Bit rate : 1 291 Kbps
Width : 624 pixels
Height : 256 pixels
Display aspect ratio : 2.40:1
Frame rate : 23.976 fps
Resolution : 24 bits
Bits/(Pixel*Frame) : 0.337
Stream size : 755 MiB (94%)
Audio
ID : 1
Format : MPEG Audio
Format version : Version 1
Format profile : Layer 3
Codec ID : 55
Codec ID/Hint : MP3
Duration : 1h 21mn
Bit rate mode : Constant
Bit rate : 64.0 Kbps
Channel(s) : 2 channels
Sampling rate : 48.0 KHz
Resolution : 16 bits
Stream size : 37.4 MiB (5%)
Alignment : Aligned on interleaves
Interleave, duration : 24 ms (0.58 video frame)
Interleave, preload duration : 24 ms
http://www.imdb.com/title/tt1144884/
Screens:








ScreenCaps:


The Final Destination 4 (2009) DVDRip XviD-MAX Torrent Free Download
http://thepiratebay.org/user/extremezone/0/7