The Final Destination 4 (2009) DVDRip XviD-MAX

Torrent Download

 


User:
 
Added:5 years ago
Peers:472 seeds 65 leeches
Last Update:
3 years ago
High Speed:Download Now
Health:
 
Total size:
800.56 MB
Category:
Hash:
8ebcf4fd383d1d73116c9b2c4afe3420c60d0695
Tracker:
udp://tracker.publicbt.com:80/announce
Alternate:
Share:
 
 
 
 

Description
The Final Destination 4 (2009) DVDRip XviD-MAX Format : AVI Format/Info : Audio Video Interleave File size : 800 MiB Duration : 1h 21mn Overall bit rate : 1 368 Kbps Writing application : VirtualDubMod 1.5.10.2 (build 2542/release) Writing library : VirtualDubMod build 2542/release Original source form : MAX TORRENTZ Copyright : SIGISMUNT Video Format : xvid Codec ID : xvid Duration : 1h 21mn Bit rate : 1 291 Kbps Width : 624 pixels Height : 256 pixels Display aspect ratio : 2.40:1 Frame rate : 23.976 fps Resolution : 24 bits Bits/(Pixel*Frame) : 0.337 Stream size : 755 MiB (94%) Audio ID : 1 Format : MPEG Audio Format version : Version 1 Format profile : Layer 3 Codec ID : 55 Codec ID/Hint : MP3 Duration : 1h 21mn Bit rate mode : Constant Bit rate : 64.0 Kbps Channel(s) : 2 channels Sampling rate : 48.0 KHz Resolution : 16 bits Stream size : 37.4 MiB (5%) Alignment : Aligned on interleaves Interleave, duration : 24 ms (0.58 video frame) Interleave, preload duration : 24 ms http://www.imdb.com/title/tt1144884/ Screens: http://www.postimg.com/image/9000/8375.jpg http://www.postimg.com/image/9000/8376.jpg http://www.postimg.com/image/9000/8377.jpg http://www.postimg.com/image/9000/8378.jpg ScreenCaps: http://www.postimg.com/image/9000/8379.jpg The Final Destination 4 (2009) DVDRip XviD-MAX Torrent Free Download http://thepiratebay.org/user/extremezone/0/7
https://www.monova.org/torrent/3360670/The_Final_Destination_4_(2009)_DVDRip_XviD-MAX.html
▼ View Full Description ▼