Lincoln.Lawyer.2011.DVDrip.x264.BBnRG

Torrent Download

 


User:
 
Added:3 years ago
Peers:24 seeds 9 leeches
Last Update:
2 years ago
High Speed:Download Now
Health:
 
Total size:
804.58 MB
Category:
Hash:
541bbc7e1c40056d1f218132561d79229df6c3b0
Tracker:
udp://tracker.publicbt.com:80/announce
Alternate:
Share:
 
 
 
 

Description
. http://www.scenetime.com - SceneTime [ We been having it ] !!! How come you press harder on a remote control when you know the battery is dead? so you better seed to get speed ;) Seed back for speed ...................................NFO:.................................................Another Fine Release Brought to you from - =================================================================================================== BBBBBBBBBBBBBBBBB BBBBBBBBBBBBBBBBB RRRRRRRRRRRRRRRRR GGGGGGGGGGGGG B::::::::::::::::B B::::::::::::::::B R::::::::::::::::R GGG::::::::::::G B::::::BBBBBB:::::B B::::::BBBBBB:::::B R::::::RRRRRR:::::R GG:::::::::::::::G BB:::::B B:::::BBB:::::B B:::::B RR:::::R R:::::R G:::::GGGGGGGG::::G B::::B B:::::B B::::B B:::::Bnnnn nnnnnnnn R::::R R:::::R G:::::G GGGGGG B::::B B:::::B B::::B B:::::Bn:::nn::::::::nn R::::R R:::::RG:::::G B::::BBBBBB:::::B B::::BBBBBB:::::B n::::::::::::::nn R::::RRRRRR:::::R G:::::G B:::::::::::::BB B:::::::::::::BB nn:::::::::::::::n R:::::::::::::RR G:::::G GGGGGGGGGG B::::BBBBBB:::::B B::::BBBBBB:::::B n:::::nnnn:::::n R::::RRRRRR:::::R G:::::G G::::::::G B::::B B:::::B B::::B B:::::B n::::n n::::n R::::R R:::::RG:::::G GGGGG::::G B::::B B:::::B B::::B B:::::B n::::n n::::n R::::R R:::::RG:::::G G::::G B::::B B:::::B B::::B B:::::B n::::n n::::n R::::R R:::::R G:::::G G::::G BB:::::BBBBBB::::::BBB:::::BBBBBB::::::B n::::n n::::nRR:::::R R:::::R G:::::GGGGGGGG::::G B:::::::::::::::::B B:::::::::::::::::B n::::n n::::nR::::::R R:::::R GG:::::::::::::::G B::::::::::::::::B B::::::::::::::::B n::::n n::::nR::::::R R:::::R GGG::::::GGG:::G BBBBBBBBBBBBBBBBB BBBBBBBBBBBBBBBBB nnnnnn nnnnnnRRRRRRRR RRRRRRR GGGGGG GGGG =================================================================================================== Your Movie Name (2011) BRRip x264-BBnRG =================================================================================================== ___ _ ___ __ | _ \\___| |___ __ _ ___ ___ |_ _|_ _ / _|___ | / -_) / -_) _` (_-</ -_) | || ' \\| _/ _ \\ |_|_\\___|_\\___\\__,_/__/\\___| |___|_||_|_| \\___/ =================================================================================================== General Unique ID : Complete name : Lincoln.Lawyer.2011.DVDrip.x264.BBnRG.mkv Format : Matroska File size : 805 MiB Duration : 1h 58mn Overall bit rate : 949 Kbps Encoded date : UTC 2011-07-14 22:50:53 Writing application : mkvmerge v4.8.0 ('I Got The...') built on May 24 2011 03:12:58 Writing library : libebml v1.2.0 + libmatroska v1.1.0 Video ID : 1 Format : AVC Format/Info : Advanced Video Codec Format profile : [email protected] Format settings, CABAC : Yes Format settings, ReFrames : 3 frames Format settings, GOP : M=4, N=50 Muxing mode : Header stripping Codec ID : V_MPEG4/ISO/AVC Duration : 1h 58mn Bit rate mode : Variable Bit rate : 500 Kbps Maximum bit rate : 40.0 Mbps Width : 640 pixels Height : 272 pixels Display aspect ratio : 2.35:1 Frame rate : 29.970 fps Color space : YUV Chroma subsampling : 4:2:0 Bit depth : 8 bits Scan type : Progressive Bits/(Pixel*Frame) : 0.096 Stream size : 409 MiB (51%) Writing library : x264 core 115 r1995 c1e60b9 Encoding settings : cabac=1 / ref=4 / deblock= Language : English Color primaries : BT.709-5, BT.1361, IEC 61966-2-4, SMPTE RP177 Transfer characteristics : BT.709-5, BT.1361 Matrix coefficients : BT.709-5, BT.1361, IEC 61966-2-4 709, SMPTE RP177 Audio ID : 2 Format : AC-3 Format/Info : Audio Coding 3 Mode extension : CM (complete main) Muxing mode : Header stripping Codec ID : A_AC3 Duration : 1h 58mn Bit rate mode : Constant Bit rate : 448 Kbps Channel(s) : 6 channels Channel positions : Front: L C R, Side: L R, LFE Sampling rate : 48.0 KHz Bit depth : 16 bits Compression mode : Lossy Stream size : 380 MiB (47%) ___ _ ___ _ _ _ | _ \\___| |___ __ _ ___ ___ | \\ ___ ___ __ _ _(_)_ __| |_(_)___ _ _ | / -_) / -_) _` (_-</ -_) | |) / -_|_-</ _| '_| | '_ \\ _| / _ \\ ' \\ |_|_\\___|_\\___\\__,_/__/\\___| |___/\\___/__/\\__|_| |_| .__/\\__|_\\___/_||_| |_| =================================================================================================== Encoder:Bustheadz Plot:A lawyer conducts business from the back of his Lincoln town car while representing a high-profile client in Beverly Hills. IMDB:http://www.imdb.com/title/tt1189340/ ___ _ _ _ / __|_ _ ___ _ _ _ __ | \\| |___| |_ ___ ___ | (_ | '_/ _ \\ || | '_ \\ | .` / _ \\ _/ -_|_-< \\___|_| \\___/\\_,_| .__/ |_|\\_\\___/\\__\\___/__/ |_| =================================================================================================== Source(s):Lincoln.Lawyer.2011.PROPER.NTSC.DVDR-STOCK thx :) Release Notes: Here we go with another fine release. This was pretty straight forward. Just touched it up a little tiny bit, and then did a conversion whilst preserving the quality. This may snap out of sync for less than half a second for just a few mins, but then it snaps back into sync, and this only happens once and is barley noticable. I left the audio as it is, as it was already sweet. Thanks for all of your continued support. Enjoy another fine BBnRG release. ___ _ / __|_ _ ___ ___| |_ ___ | (_ | '_/ -_) -_) _|_ / \\___|_| \\___\\___|\\__/__| =================================================================================================== IMAGiNE, NiCkkkDoN, Hive-CM8, T0XiC, *THC*, All BBnRG Encoders & to all other p2p teams out there.
https://www.monova.org/torrent/4602264/Lincoln.Lawyer.2011.DVDrip.x264.BBnRG.html
▼ View Full Description ▼