Episode 1of10 - Battlestar Galactica Blood and Chrome (Full HD

Torrent Download

 

User:
 
Added:2 years ago
Peers:2 seeds 1 leeches
Last Update:
2 years ago
Health:
 
Total size:
469.25 MB
Category:
Hash:
86516557d6349dadee2f62f9cdd207b84d14da3c
Tracker:
udp://tracker.1337x.org:80/announce
Alternate:
This file may be available on Fast Download.
Share:
 
 
 
 
Not Rated: Rate this torrent!
 
Click here to
Download
up to 10X FASTER
Episode 1of10 - Battlestar Galactica Blood and Chrome (Full HD

Description

General
Episode 1of10 - Battlestar Galactica Blood and Chrome (Full HD)-h65.mp4
Format : MPEG-4
Format profile : Base Media / Version 2
Codec ID : mp42
File size : 469 MiB
Duration : 12mn 1s
Overall bit rate mode : Variable
Overall bit rate : 5 459 Kbps


Video
ID : 1
Format : AVC
Format/Info : Advanced Video Codec
Format profile : [email protected]
Format settings, CABAC : Yes
Format settings, ReFrames : 1 frame
Codec ID : avc1
Codec ID/Info : Advanced Video Coding
Duration : 12mn 1s
Bit rate : 5 264 Kbps
Maximum bit rate : 11.1 Mbps
Width : 1 920 pixels
Height : 1 080 pixels
Display aspect ratio : 16:9
Frame rate mode : Constant
Frame rate : 23.976 fps
Color space : YUV
Chroma subsampling : 4:2:0
Bit depth : 8 bits
Scan type : Progressive
Bits/(Pixel*Frame) : 0.106
Stream size : 453 MiB (96%)


Audio
ID : 2
Format : AAC
Format/Info : Advanced Audio Codec
Format profile : LC
Codec ID : 40
Duration : 12mn 1s
Bit rate mode : Variable
Bit rate : 192 Kbps
Maximum bit rate : 201 Kbps
Channel(s) : 2 channels
Channel positions : Front: L R
Sampling rate : 44.1 KHz
Compression mode : Lossy
Stream size : 16.5 MiB (4%)

Enjoy and seed it, buddies!