Laila - Shootout At Wadala Official HD [OmNak24]

Torrent Download

 


User:
 
Added:2 years ago
Peers:1 seeds 0 leeches
Last Update:
2 years ago
High Speed:Download Now
Health:
 
Total size:
55.63 MB
Category:
Hash:
74F86EC5A7957619DBB4CE0E6C5AFEDBBA4EEC93
Alternate:
Share:
 
 
 
 

Description
Laila Ft.Sunny Leone - Shootout At Wadala HD [OmNak24]

Movie Poster:
image

Album Art:
image

Info:

General

Format : MPEG-4
Format profile : Base Media / Version 2
Codec ID : mp42
File size : 55.4 MiB
Duration : 2mn 30s
Overall bit rate mode : Variable
Overall bit rate : 3 080 Kbps


Video

ID : 1
Bit rate : 2 886 Kbps
Maximum bit rate : 6 190 Kbps
Width : 1 280 pixels
Height : 720 pixels
Display aspect ratio : 16:9
Frame rate mode : Constant
Frame rate : 25.000 fps
Bits/(Pixel*Frame) : 0.125
Stream size : 51.9 MiB (94%)

Audio

ID : 2
Format : AAC
Bit rate mode : Variable
Bit rate : 192 Kbps
Maximum bit rate : 201 Kbps
Channel(s) : 2 channels
Channel positions : Front: L R
Sampling rate : 44.1 KHz
Compression mode : Lossy
Stream size : 3.45 MiB (6%)


ScreenShots:
image

Uploaded By : OmNak24

Please Seed !! Thank You!!



https://www.monova.org/torrent/6302361/Laila_-_Shootout_At_Wadala_Official_HD_(OmNak24).html
▼ View Full Description ▼