sons of anarchy   taylor swift   yg   Godzilla   welcome to New York taylor swift   transcendence 2014   Gotham S01E05   x men days of future past   florida georgia line   animals maroon 5   MATURE   pink   revenge   jason aldean   madison ivy   rich homie quan   the walking dead s05e02   italian   future   divergent   Lesbians   the walking dead   happy   sleepy hollow   dracula untold   homeland   take me to church   PITBULL   lil wayne   kendrick lamar   young thug   nicki minaj   scorpion s01e05   fury   teenage mutant ninja turtles   hercules   true blood   classic   The Originals   MilfsLikeItBig   all about that bass   linkin park   Neighbors   the big bang theory   the equalizer   rihanna   The Blacklist S02E05   thor   2014   Wiz Khalifa   walking dead   katy perry   trey songz   french.   creampie   dawn of the planet of the apes   walking dead s05e02   Game of thrones   Sleepy Hollow S02E05   sam smith   miley cyrus   Milfs   asian   the blacklist   How to Train Your Dragon 2   DESI   eminem   Maroon 5   rush   milf   Metallica   rick ross   lucy   drake how about now   migos   usher   annabelle   beyonce   the originals s02e03   guardians of the galaxy   arrow   tammy   lesbian   drake   the walking dead season 5   bang bang   michael jackson   chris brown   FROZEN   the big bang theory s08e06   milfs like it big   boardwalk empire   captain america 2014   luke bryan   french   bobby shmurda   yify   Transformers Age of Extinction   scorpion   gotham  


Laila - Shootout At Wadala Official HD [OmNak24]

Torrent Download

 

User:
 
Added:1 year ago
Peers:1 seeds 0 leeches
Last Update:
1 year ago
Health:
 
Total size:
55.63 MB
Category:
Hash:
74F86EC5A7957619DBB4CE0E6C5AFEDBBA4EEC93
Alternate:
This file may be available on Fast Download.
Share:
 
 
 
 
Not Rated: Rate this torrent!
 
Click here to
Download
up to 10X FASTER
Laila - Shootout At Wadala Official HD [OmNak24]

Description

Laila Ft.Sunny Leone - Shootout At Wadala HD [OmNak24]

Movie Poster:


Album Art:


Info:

General

Format : MPEG-4
Format profile : Base Media / Version 2
Codec ID : mp42
File size : 55.4 MiB
Duration : 2mn 30s
Overall bit rate mode : Variable
Overall bit rate : 3 080 Kbps


Video

ID : 1
Bit rate : 2 886 Kbps
Maximum bit rate : 6 190 Kbps
Width : 1 280 pixels
Height : 720 pixels
Display aspect ratio : 16:9
Frame rate mode : Constant
Frame rate : 25.000 fps
Bits/(Pixel*Frame) : 0.125
Stream size : 51.9 MiB (94%)

Audio

ID : 2
Format : AAC
Bit rate mode : Variable
Bit rate : 192 Kbps
Maximum bit rate : 201 Kbps
Channel(s) : 2 channels
Channel positions : Front: L R
Sampling rate : 44.1 KHz
Compression mode : Lossy
Stream size : 3.45 MiB (6%)


ScreenShots:


Uploaded By : OmNak24

Please Seed !! Thank You!!