IRON MAN 3 2013 HDCAM 480P AC3 $MURDER$

Torrent Download
 


 

User:
 
Added:1 year ago
Peers:3 seeds 36 leeches
Last Update:
1 year ago
Health:
 
Total size:
867.38 MB
Category:
Hash:
B55C4D5A4B8B25FE69848C4AD46509F5A27F8651
Alternate:
This file may be available on Fast Download.
Share:
 
 
 
 
Not Rated: Rate this torrent!
 
Click here to
Download
up to 10X FASTER
IRON MAN 3 2013 HDCAM 480P AC3 $MURDER$

Description



==================
Iron Man 3 (2013)
==================
130 min - Action | Sci-Fi | Thriller - 3 May 2013 (USA)
=============================================================================================

8.1 Your rating: -/10 Ratings: 8.1/10 from 23,653 users Metascore: 69/100
Reviews: 151 user | 127 critic | 8 from Metacritic.com
=====
PLOT
=============================================================================================
When Tony Stark's world is torn apart by a formidable terrorist called the Mandarin,
he starts an odyssey of rebuilding and retribution.
=============================================================================================
Director: Shane Black
Writers: Drew Pearce (screenplay), Shane Black (screenplay), 4 more credits ยป
Stars: Robert Downey Jr., Gwyneth Paltrow, Guy Pearce
==============================================================================================
General
Complete name : IRON MAN 3 2013 HDCAM 480P AC3 $MURDER$.mkv
Format : Matroska
Format version : Version 1
File size : 843 MiB
Duration : 1h 58mn
Overall bit rate : 997 Kbps
Encoded date : UTC 2013-04-30 01:08:11
ENCODER : DOCMURDER82
SOURCE USED : I.M3.2013.CAM.XviD.M.iLLENiUM
SAMPLE- : YES

Video
ID : 1
Format : AVC
Format/Info : Advanced Video Codec
Format profile : Hi[email protected]
Format settings, CABAC : No
Format settings, ReFrames : 1 frame
Codec ID : V_MPEG4/ISO/AVC
Duration : 1h 58mn
Bit rate : 864 Kbps
Width : 1 232 pixels
Height : 480 pixels
Display aspect ratio : 2.556
Original display aspect ratio : 2.567
Frame rate : 25.000 fps
Color space : YUV
Chroma subsampling : 4:2:0
Bit depth : 8 bits
Scan type : Progressive
Bits/(Pixel*Frame) : 0.058
Stream size : 718 MiB (85%)
Writing library : x264 core
Default : Yes
Forced : No

Audio
ID : 2
Format : AC-3
Format/Info : Audio Coding 3
Mode extension : CM (complete main)
Codec ID : A_AC3
Duration : 1h 58mn
Bit rate mode : Constant
Bit rate : 128 Kbps
Channel(s) : 2 channels
Channel positions : Front: L R
Sampling rate : 44.1 KHz
Bit depth : 16 bits
Compression mode : Lossy
Stream size : 108 MiB (13%)
Default : Yes
Forced : No

SCREENZ





















Related Torrents


torrent name
size
files
age
seed
leech



15