IRON MAN III {2013} HDCAM AVC 1080P AC3 $MURDER$

Torrent Download

 

User:
 
Added:1 year ago
Peers:2 seeds 126 leeches
Last Update:
1 year ago
Health:
 
Total size:
1.67 GB
Category:
Hash:
3C6F82C1D8506441A02F8406C2A7E9442B39B4F7
Alternate:
This file may be available on Fast Download.
Share:
 
 
 
 
Not Rated: Rate this torrent!
 
Click here to
Download
up to 10X FASTER
IRON MAN III {2013} HDCAM AVC 1080P AC3 $MURDER$

Description



GeneraL
==================
Iron Man 3 (2013)
==================
130 min - Action | Sci-Fi | Thriller - 3 May 2013 (USA)
=============================================================================================

8.1 Your rating: -/10 Ratings: 8.1/10 from 23,653 users Metascore: 69/100
Reviews: 151 user | 127 critic | 8 from Metacritic.com
=====
PLOT
=============================================================================================
When Tony Stark's world is torn apart by a formidable terrorist called the Mandarin,
he starts an odyssey of rebuilding and retribution.
=============================================================================================
Director: Shane Black
Writers: Drew Pearce (screenplay), Shane Black (screenplay), 4 more credits ยป
Stars: Robert Downey Jr., Gwyneth Paltrow, Guy Pearce
==============================================================================================

Complete name : IRON MAN III {2013} HDCAM AVC 1080P AC3 $MURDER$.mkv
Format : Matroska
Format version : Version 1
File size : 1.65 GiB
Duration : 1h 58mn
Overall bit rate : 1 998 Kbps
Encoded date : UTC 2013-05-01 00:03:10
ENCODER : DOCMURDER82 Fumbling Towards Ecstasy

Video
ID : 1
Format : AVC
Format/Info : Advanced Video Codec
Format profile : [email protected]
Format settings, CABAC : No
Format settings, ReFrames : 1 frame
Codec ID : V_MPEG4/ISO/AVC
Duration : 1h 58mn
Bit rate : 1 800 Kbps
Width : 1 920 pixels
Height : 804 pixels
Display aspect ratio : 2.40:1
Frame rate : 25.000 fps
Color space : YUV
Chroma subsampling : 4:2:0
Bit depth : 8 bits
Scan type : Progressive
Bits/(Pixel*Frame) : 0.047
Stream size : 1.46 GiB (88%)
Writing library : x264 core
Default : Yes
Forced : No

Audio
ID : 2
Format : AC-3
Format/Info : Audio Coding 3
Mode extension : CM (complete main)
Codec ID : A_AC3
Duration : 1h 58mn
Bit rate mode : Constant
Bit rate : 192 Kbps
Channel(s) : 2 channels
Channel positions : Front: L R
Sampling rate : 48.0 KHz
Bit depth : 16 bits
Compression mode : Lossy
Stream size : 162 MiB (10%)
Default : Yes
Forced : No

SCREENZ























Related Torrents


torrent name
size
files
age
seed
leech



11






Iron Man 3 {2013} HDCAM AVC 720P AC3 $MURDER$

Posted by DOCMURDER82  in Movies


1.68 GB
30
14 hours
3
606




7






IRON MAN 3 2013 HDCAM 480P AC3 $MURDER$

Posted by DOCMURDER82  in Movies


867.38 MB
22
23 hours
114
360




15