Florida Georgia Line   ufc   john legend   indiana jones   arrow s02e19   akon   milf   rick ross   french   thor 2011   her   justin timberlake   happy   girl   revolution   Need for Speed   season 1   frozen   ita   eminem   SCOTT   dIVERGENT   bleach   RoboCop   Non-Stop   R   300   paranoid   Katy Perry   august alsina   creampie   chris brown   indian   trey songz   ride along   turn down for what   vikings   how i met your mother   beyonce   DESI   Jay z   Red   Milfs like it big   The walking dead   MODERN FAMILY   lady gaga   future   captain america 2   game of thrones   drake   lesbian   Frozen 2013   belle   THE BIG BANG THEORY   windows   lone survivor   queen   nina   timber   snoop dogg   Moon 2009   THE WOLF OF WALL STREET   coldplay   47 ronin   classic   once upon a time   mature   dark horse   INTELLIGENCE   devil may cry   avatar   arrow   luke bryan   naked   lil wayne   NCIS   the nut job   journey   Nicki Minaj   thor   noah   rihanna   italian   community   miley cyrus   Usher   justin bieber   yify   2013   archer   kanye west   u2   WIZ KHALIFA   barney   2014 webrip   resurrection   2014   Windows 7   asian   jason derulo  


Iron Man 3 2013 R6 LiNE READNFO XViD-JUSTiCE

Torrent Download

 

User:
 
Added:11 months ago
Peers:83 seeds 343 leeches
Last Update:
11 months ago
Health:
 
Total size:
1.86 GB
Category:
Hash:
6E69BDDAD946B07CB6C19DCAD66CF3062C82728C
Rapidshare:
This file may be available on rapidshare.
Share:
 
 
 
 
Not Rated: Rate this torrent!
 
Click here to
Download
up to 10X FASTER
Iron Man 3 2013 R6 LiNE READNFO XViD-JUSTiCE

Description



Iron Man 3 2013 R6 LiNE READNFO XViD - JUSTiCE
SOURCE : VIDEO - R6
AUDIO - UNiQUE
Video and audio both cleaned and given justice.
Check sample and see.....
Ok same video as our v2 cam release ....however this time i have syncd the line audio off
unique's release to our video.
They used the other video that was nice and had no watermarks ...but have HC subs.So thought doing
this,this way gives you another option.
Also have cleaned the audio up in adobe,changing the eq bands aswell as using a light hiss filter.
Will say there is parts where theres some static that comes and goes and whilst i've toned it down
it was impossible to remove without wrecking the audio so ....
Video
ID : 0
Format : MPEG-4 Visual
Format profile : Advanced Simple@L5
Format settings, BVOP : 2
Format settings, QPel : No
Format settings, GMC : No warppoints
Format settings, Matrix : Default (MPEG)
Muxing mode : Packed bitstream
Codec ID : XVID
Codec ID/Hint : XviD
Duration : 2h 8mn
Bit rate : 1 810 Kbps
Width : 720 pixels
Height : 304 pixels
Display aspect ratio : 2.35:1
Frame rate : 29.970 fps
Color space : YUV
Chroma subsampling : 4:2:0
Bit depth : 8 bits
Scan type : Progressive
Compression mode : Lossy
Bits/(Pixel*Frame) : 0.276
Stream size : 1.63 GiB (93%)
Writing library : XviD 64
Audio
ID : 1
Format : MPEG Audio
Format version : Version 1
Format profile : Layer 3
Mode : Joint stereo
Mode extension : MS Stereo
Codec ID : 55
Codec ID/Hint : MP3
Duration : 2h 8mn
Bit rate mode : Constant
Bit rate : 128 Kbps
Channel(s) : 2 channels
Sampling rate : 48.0 KHz
Compression mode : Lossy
Delay relative to video : 10ms
Stream size : 118 MiB (7%)
Alignment : Split accross interleaves
Interleave, duration : 33 ms (1.00 video frame)
Interleave, preload duration : 500 ms
Oh added bonus ...THE after end credit scene is also inc
Sorry about the file missing on some site on our v2 release ...for some reason it
wasn't inc on all the sites it was upped to.










Related Torrents


torrent name
size
files
age
seed
leech



4






Iron Man 3 2013 R6 LiNE READNFO XViD - JUSTiCE

Posted by UsaBit  in Movies


1.86 GB
5
5 hours
201
3338




2






Iron Man 3 2013 R6 CAM AUDiO READNFO XViDv2 - JUSTiCE

Posted by UsaBit  in Movies


1.79 GB
5
1 day
451
1897




7






Iron Man 3 2013 R6 CAM AUDiO READNFO XViDv2 - JUSTiCE

Posted by TryMeS  in Movies


1.79 GB
5
1 day
257
294




1






Iron Man 3 2013 R6 LiNE READNFO XViD - JUSTiCE

Posted by TryMeS  in Movies


1.86 GB
5
5 hours
66
598