Star Trek Into Darkness 2013 TS XVID AC3 HQ Hive-CM8

Torrent Download

 

User:
 
Added:1 year ago
Peers:4 seeds 109 leeches
Last Update:
1 year ago
Health:
 
Total size:
1.69 GB
Category:
Hash:
bacfb7e6acc333283bdef96294d5a3d22e964c21
Tracker:
udp://tracker.publicbt.com:80/announce
Alternate:
This file may be available on Fast Download.
Share:
 
 
 
 
Not Rated: Rate this torrent!
 
Click here to
Download
up to 10X FASTER
Star Trek Into Darkness 2013 TS XVID AC3 HQ Hive-CM8

Description



Star.Trek.Into.Darkness.2013.TS.XVID.AC3.HQ.Hive-CM8


Sources

Video: 720p CAM PSO
Audio: Millenium/Echo
thx

Encode:

got this nice hd cam cpl days ago, just didnt have audio for it yet
it consists of 3 different cams 1h50mins perfect cam, than 10mins good cam, only last 2 mins has flickering
all in all a great source to begin with, worked over days on it.

Video:

had to cut the video in 3 parts and adjusted each as needed.
cam had low colours and needed adjustment in brightness, contrast and rgb
colours shifted a bit especially red, so had to find a middle way, some scenes are a bit more red some have still too less,
there is no perfect way for it, but looks very good now.
made it a bit brighter as needed, but there are some darker scenes, which are looking better now.
have already watch my video, so i can tell you its worth it.
translated the klingon subs to english and hardcoded them into my video, without them you wont know whats goin on at this spot.

Audio:

took milleniums line audio, was really nice, nothing to complain about
doing lipsync was a pita, took me 6h and good 120 cuts, now everything is perfect

looks very nice
enjoy


Video: 720x320 @bitrate 1700 2pass
Audio: English AC3 2.0 Stereo
Sample: yes included
Subs: yes english hardcoded for klingon parts only



http://www.imdb.com/title/tt1408101/


General
Complete name : Star.Trek.Into.Darkness.2013.TS.XVID.AC3.HQ.Hive-CM8.avi
Format : AVI
Format/Info : Audio Video Interleave
File size : 1.68 GiB
Duration : 2h 2mn
Overall bit rate : 1 964 Kbps
Writing application : Nandub v1.0rc2
Writing library : Nandub build 1853/release

Video
ID : 0
Format : MPEG-4 Visual
Format profile : Advanced Simple@L5
Format settings, BVOP : 2
Format settings, QPel : Yes
Format settings, GMC : No warppoints
Format settings, Matrix : Default (H.263)
Muxing mode : Packed bitstream
Codec ID : XVID
Codec ID/Hint : XviD
Duration : 2h 2mn
Bit rate : 1 699 Kbps
Width : 720 pixels
Height : 320 pixels
Display aspect ratio : 2.25:1
Frame rate : 25.000 fps
Color space : YUV
Chroma subsampling : 4:2:0
Bit depth : 8 bits
Scan type : Progressive
Compression mode : Lossy
Bits/(Pixel*Frame) : 0.295
Stream size : 1.45 GiB (86%)
Writing library : XviD 1.2.1 (UTC 2008-12-04)

Audio
ID : 1
Format : AC-3
Format/Info : Audio Coding 3
Mode extension : CM (complete main)
Format settings, Endianness : Big
Codec ID : 2000
Duration : 2h 2mn
Bit rate mode : Constant
Bit rate : 256 Kbps
Channel(s) : 2 channels
Channel positions : Front: L R
Sampling rate : 48.0 KHz
Bit depth : 16 bits
Compression mode : Lossy
Stream size : 224 MiB (13%)
Alignment : Split accross interleaves
Interleave, duration : 40 ms (1.00 video frame)
Interleave, preload duration : 500 ms



Plot:

After the crew of the Enterprise find an unstoppable force of terror from within their own organization, Captain Kirk leads a manhunt to a war-zone world to capture a one man weapon of mass destruction.

Cast:

Chris Pine ... Kirk
Zachary Quinto ... Spock
Zoe Saldana ... Uhura
Karl Urban ... Bones
Simon Pegg ... Scotty


Screens:












Related Torrents


torrent name
size
files
age
seed
leech



124






Star Trek Into Darkness 2013 CAM NEW SOURCE XViD-FANTA

in Movies


1.48 GB
4
2 days
5997
4650




409






Star Trek Into Darkness 2013 CAM XviD-Lum1x

Posted by scene4all  in Movies


1.34 GB
2
1 week
6729
1363




17






The Fall - Darkness Visible 1x2 [HDTV - FOV]

in TV


343.48 MB
1
6 days
2488
545




40






Star Trek Into Darkness 2013 Full Movie CAM XviD-SUMOTorrent

Posted by BobDobbs  in Movies


735.68 MB
3
1 week
1715
523




2