Black Sabbath - 1963[BRRip.x264.AC3][Napisy PL/Eng][Italian]

Torrent Download

 


User:
 
Added:1 year ago
Peers:0 seeds 0 leeches
Last Update:
1 year ago
High Speed:Download Now
Health:
 
Total size:
2.43 GB
Category:
Hash:
d834c84b8c7c83d32ad26d7e6f4d85b381c8c8af
Tracker:
udp://tracker.publicbt.com:80/announce
Alternate:
Share:
 
 
 
 

Description
image

gatunek: Horror Nowele filmowe
produkcja: Francja USA Włochy
premiera: 17 sierpnia 1963 (świat)
reżyseria: Mario Bava
scenariusz: Marcello Fondato Mario Bava Alberto Bevilacqua

opis:

A trio of atmospheric horror tales about: A woman terrorized in her apartment
by phone calls from an escaped prisoner from her past; a Russian count in the
early 1800s who stumbles upon a family in the countryside trying to destroy
a particularly vicious line of vampires; and a 1900-era nurse who makes
a fateful decision while preparing the corpse of one of her patients - an elderly
medium who died during a seance.

"Czarne święto" (aka "Trzy oblicza strachu") to połączona w jedno opowieść składająca
się z trzech części: "The Drop of Water" opowiadająca o zakonnicy, która kradnie
pierścień należący do nieżyjącego spirytualisty, czym ściąga na siebie jego gniew;
"The Telephone", której bohaterką jest prostytutka terroryzowana przez telefony od
swojego zmarłego klienta oraz "The Wurdalak", traktująca o wampirze odżywiającym się
krwią swoich kochanek.

image
image

image

Obsada:

Michele Mercier....Rosy (segment "The Telephone")
Lidia Alfonsi......Mary (segment "The Telephone")
Boris Karloff......Gorca (segment "The Wurdalak")

Dane techniczne:

Black Sabbath (1963)-alE13 (1).mkv
Format : Matroska
Format version : Version 4 / Version 2
File size : 2.40 GiB
Duration : 1h 32mn
Overall bit rate : 3 716 Kbps
Encoded date : UTC 2013-06-07 05:26:26
Writing application : mkvmerge v6.1.0
Writing library : libebml v1.3.0 + libmatroska v1.4.0

Video
ID : 1
Format : AVC
Format/Info : Advanced Video Codec
Format profile : [email protected]
Format settings, CABAC : Yes
Format settings, ReFrames : 2 frames
Codec ID : V_MPEG4/ISO/AVC
Duration : 1h 32mn
Bit rate : 3 500 Kbps
Width : 1 920 pixels
Height : 1 080 pixels
Display aspect ratio : 16:9
Frame rate mode : Constant
Frame rate : 23.976 fps
Color space : YUV
Chroma subsampling : 4:2:0
Bit depth : 8 bits
Scan type : Progressive
Bits/(Pixel*Frame) : 0.070
Stream size : 2.20 GiB (92%)
Title : Black Sabbath (1963)Rip-alE13
Writing library : x264 core 112 r1834 a51816a

Audio
ID : 2
Format : AC-3
Format/Info : Audio Coding 3
Mode extension : CM (complete main)
Format settings, Endianness : Big
Codec ID : A_AC3
Duration : 1h 32mn
Bit rate mode : Constant
Bit rate : 224 Kbps
Channel(s) : 2 channels
Channel positions : Front: L R
Sampling rate : 44.1 KHz
Bit depth : 16 bits
Compression mode : Lossy
Stream size : 148 MiB (6%)
Title : Black Sabbath (1963)-alE13
Default : Yes
Forced : No

Text #1
ID : 3
Format : UTF-8
Codec ID : S_TEXT/UTF8
Codec ID/Info : UTF-8 Plain Text
Title : Black Sabbath (1963)-alE13
Language : Polish

Text #2
ID : 4
Format : UTF-8
Codec ID : S_TEXT/UTF8
Codec ID/Info : UTF-8 Plain Text
Title : Black Sabbath (1963)-alE13
Language : English

Related Torrents

torrent name size files age seed leech