Hannibal Rising *2007*[mini-HD.1080p.AAC.BluRay.x264-LEON 345]

Torrent Download

 


User:
 
Added:1 year ago
Peers:0 seeds 3 leeches
Last Update:
1 year ago
High Speed:Download Now
Health:
 
Total size:
1.89 GB
Category:
Hash:
ed1053840e499662d932a84e256ae1eeb760a95a
Tracker:
udp://tracker.publicbt.com:80/announce
Alternate:
Share:
 
 
 
 

Description
Hannibal :Po Drugiej Stronie Maski - Hannibal Rising *2007*[mini-HD.1080p.AAC.BluRay.x264-LEON 345] [Lektor PL] ============================================================ IMDB http://www.imdb.com/title/tt0367959/?ref_=sr_3 Produkcja: Czechy, Francja, USA, Wielka Brytania, Włochy Gatunek: Thriller Data premiery: 2007-02-23 (Polska), 2007-02-07 (Świat) Reżyseria: Peter Webber Scenariusz: Thomas Harris Zdjęcia: Ben Davis Muzyka: Thomas Newman, Shigeru Umebayashi Na podstawie: powieści Thomasa Harrisa II wojna światowa. Arystokratyczna rodzina Lecterów zostaje wymordowana na oczach Hannibala. On sam zaś trafia do sowieckiego sierocińca. W nieprawdopodobny sposób udaje mu się stamtąd uciec i dotrzeć do Francji. Tam trafia pod opiekę pani Murasaki, wdowy po wuju. Jej opieka łagodzi cierpienie, jakiego Hannibal doświadczył w dzieciństwie i podsyca w nim zainteresowanie muzyką, literaturą i malarstwem, jak również japońskimi rytuałami zabijania. Powracające wspomnienia budzą w nim w końcu mroczne pożądanie i wieczny głód krwi. Jest to początek narodzin potwora. Film oparty jest na podstawie książki Thomasa Harrisa o tym samym tytule. General Format : MPEG-4 Format profile : Base Media Codec ID : isom File size : 1.89 GiB Duration : 2h 0mn Overall bit rate mode : Variable Overall bit rate : 2 247 Kbps Movie name : Hannibal Rising 2007_miniHD(Leon 345) Encoded date : UTC 2013-10-13 13:05:17 Tagged date : UTC 2013-10-13 13:07:07 Video ID : 1 Format : AVC Format/Info : Advanced Video Codec Format profile : [email protected] Format settings, CABAC : Yes Format settings, ReFrames : 2 frames Codec ID : avc1 Codec ID/Info : Advanced Video Coding Duration : 2h 0mn Bit rate : 2 049 Kbps Maximum bit rate : 14.2 Mbps Width : 1 920 pixels Height : 816 pixels Display aspect ratio : 2.35:1 Frame rate mode : Constant Frame rate : 24.000 fps Original frame rate : 23.976 fps Color space : YUV Chroma subsampling : 4:2:0 Bit depth : 8 bits Scan type : Progressive Bits/(Pixel*Frame) : 0.055 Stream size : 1.73 GiB (91%) Title : Rip by Leon 345 Writing library : x264 core Language : English Encoded date : UTC 2013-10-13 13:05:17 Tagged date : UTC 2013-10-13 13:05:39 Color primaries : BT.709 Transfer characteristics : BT.709 Matrix coefficients : BT.709 Audio ID : 2 Format : AAC Format/Info : Advanced Audio Codec Format profile : HE-AAC / LC Codec ID : 40 Duration : 2h 0mn Bit rate mode : Variable Bit rate : 192 Kbps Maximum bit rate : 230 Kbps Channel(s) : 6 channels Channel positions : Front: L C R, Side: L R, LFE Sampling rate : 48.0 KHz / 24.0 KHz Compression mode : Lossy Stream size : 166 MiB (9%) Title : AAC 5.1 Lektor PL (Leon 345) Language : Polish Encoded date : UTC 2013-10-13 13:05:36 Tagged date : UTC 2013-10-13 13:05:39 Source [thx]: V- HDTV Polski Lektor - HDBT
https://www.monova.org/torrent/7049421/Hannibal_Rising_*2007*(mini-HD.1080p.AAC.BluRay.x264-LEON_345).html
▼ View Full Description ▼