Saree Ke Fall Sa Video - R...Rajkumar HD 720p {GreatPalash}.mp4

Torrent Download

 

User:
 
Added:9 months ago
Peers:1 seeds 5 leeches
Last Update:
9 months ago
Health:
 
Total size:
44.74 MB
Category:
Hash:
bcecbe1434191cb4b090d42341252bc9f6d5d1ab
Tracker:
udp://tracker.publicbt.com:80/announce
Alternate:
This file may be available on Fast Download.
Share:
 
 
 
 
Torrent Rating: 5.7/10 (3 votes cast)
 
Click here to
Download
up to 10X FASTER
Saree Ke Fall Sa Video - R...Rajkumar HD 720p {GreatPalash}.mp4

Description

Check out the foot tapping number 'Saree Ke Fall Sa' sung by Antara Mitra and Nakash Aziz from R...Rajkumar featuring Shahid Kapoor & Sonakshi Sinha.

Music: Pritam
Lyrics: Mayur Puri

Saree Ke Fall Sa Lyrics:

SAREE KE FALL SA KABHI MATCH KIYA RE
KABHI CHOD DIYA DIL KABHI CATCH KIYA RE
SAREE KE FALL SA KABHI MATCH KIYA RE
KABHI CHOD DIYA DIL KABHI CATCH KIYA RE
TOUCH KARKE, TOUCH KARKE, TOUCH KARKE, TOUCH KARKE
KAHAN CHALDI BACH KARKE
TOUCH KARKE, TOUCH KARKE

TOUCH KARKE DIL SE DIL ATTACH KIYA RE
KABHI CHHODD DIYA DIL KABHI CATCH KIYA RE
SAREE KE FALL SA KABHI MATCH KIYA RE

SAAYA JABSE MILA TERA SAAYA
BHAAYA MUJHE HARBAAR TU BHAAYA
LAAYA SAPNE HAZAAR TU LAAYA
AISE AISE HAAN AISE AISE AISE JAISE
AAYA JABSE HAI YAAR TU AAYA
CHAAYA BANKE HAI PYAAR TU CHAAYA
LAAYA SAPNE HAZAAR TU LAAYA AISE AISE HAAN AISE AISE AISE

SACH KARKE SACH KARKE
MERE SAPNE SACH KARKE
KAHAN CHALDI BACH KARKE TOUCH KARKE, TOUCH KARKE

TOUCH KARKE DIL MERA KYUN SCRATCH KIYA RE
KABHI CHHODD DIYA DIL KABHI CATCH KIYA RE
SAREE KE FALL SA KABHI MATCH KIYA RE
KABHI CHHODD DIYA DIL KABHI CATCH KIYA RE
SAREE KE FALL SA KABHI MATCH KIYA RE

Eros International & Next Gen Films presents 'R...Rajkumar' a film directed by Prabhu Dheva featuring Shahid Kapoor & Sonakshi Sinha in the lead roles. The film is produced by Sunil Lulla & Viki Rajani.

R...Rajkumar releases in theatres on 6th December, 2013.

Screenshots:-









Media Info:-

General
Complete name : Saree Ke Fall Sa Video - R...Rajkumar HD 720p {GreatPalash}.mp4
Format : MPEG-4
Format profile : Base Media / Version 2
Codec ID : mp42
File size : 44.7 MiB
Duration : 2mn 34s
Overall bit rate mode : Variable
Overall bit rate : 2 428 Kbps
Encoded date : UTC 2013-10-23 05:31:29
Tagged date : UTC 2013-10-23 05:31:29

Video
ID : 1
Format : AVC
Format/Info : Advanced Video Codec
Format profile : [email protected]
Format settings, CABAC : Yes
Format settings, ReFrames : 1 frame
Codec ID : avc1
Codec ID/Info : Advanced Video Coding
Duration : 2mn 34s
Bit rate : 2 234 Kbps
Maximum bit rate : 5 693 Kbps
Width : 1 280 pixels
Height : 720 pixels
Display aspect ratio : 16:9
Frame rate mode : Constant
Frame rate : 25.000 fps
Color space : YUV
Chroma subsampling : 4:2:0
Bit depth : 8 bits
Scan type : Progressive
Bits/(Pixel*Frame) : 0.097
Stream size : 41.2 MiB (92%)
Tagged date : UTC 2013-10-23 05:31:32

Audio
ID : 2
Format : AAC
Format/Info : Advanced Audio Codec
Format profile : LC
Codec ID : 40
Duration : 2mn 34s
Bit rate mode : Variable
Bit rate : 192 Kbps
Maximum bit rate : 203 Kbps
Channel(s) : 2 channels
Channel positions : Front: L R
Sampling rate : 44.1 KHz
Compression mode : Lossy
Stream size : 3.54 MiB (8%)
Encoded date : UTC 2013-10-23 05:31:31
Tagged date : UTC 2013-10-23 05:31:32