Blue Eyes Full Video Song HD 720p YoYo Honey Singh -Blockbuster Song Of 2013

Torrent Download

 

User:
 
Added:11 months ago
Peers:8 seeds 67 leeches
Last Update:
11 months ago
Health:
 
Total size:
54.98 MB
Category:
Hash:
7962430FF342D8B347355DE27AB886DDCB8C26A7
Alternate:
This file may be available on Fast Download.
Share:
 
 
 
 
Torrent Rating: 7.0/10 (1 vote cast)
 
Click here to
Download
up to 10X FASTER
Blue Eyes Full Video Song HD 720p YoYo Honey Singh -Blockbuster Song Of 2013

Description

!!..Blue Eyes Full Video Song HD 720P YoYo Honey Singh Blockbuster Song Of 2013..!!





Song: Blue Eyes
Singar: YoYo Honey Singh
Music: YoYo Honey Singh
Format: HD720
Format : MPEG-4
Format profile : Base Media / Version 2
Codec ID : mp42
File size : 54.1 MiB
Duration : 4mn 2s
Overall bit rate mode : Variable
Overall bit rate : 1 869 Kbps
Video
ID : 1
Format : AVC
Format/Info : Advanced Video Codec
Format profile : [email protected]
Format settings, CABAC : Yes
Format settings, ReFrames : 1 frame
Format settings, GOP : M=1, N=60
Codec ID : avc1
Codec ID/Info : Advanced Video Coding
Duration : 4mn 2s
Bit rate : 1 674 Kbps
Maximum bit rate : 4 361 Kbps
Width : 1 280 pixels
Height : 720 pixels
Display aspect ratio : 16:9
Frame rate mode : Constant
Frame rate : 23.976 fps
Color space : YUV
Chroma subsampling : 4:2:0
Bit depth : 8 bits
Scan type : Progressive
Bits/(Pixel*Frame) : 0.076
Stream size : 48.4 MiB (90%)
Tagged date : UTC 2013-11-06 10:31:30
Audio
ID : 2
Format : AAC
Format/Info : Advanced Audio Codec
Format profile : LC
Codec ID : 40
Duration : 4mn 2s
Bit rate mode : Variable
Bit rate : 192 Kbps
Maximum bit rate : 201 Kbps
Channel(s) : 2 channels
Channel positions : Front: L R
Sampling rate : 44.1 KHz
Compression mode : Lossy
Stream size : 5.56 MiB (10%)