Sergeant York (1941) Colorized

Torrent Download
 

Direct Download!

- might also be available on usenet


 

User:
 
Added:10 months ago
Peers:1 seeds 1 leeches
Last Update:
10 months ago
Health:
 
Total size:
1.07 GB
Category:
Hash:
c2ba4550f232af41932c3255f14d489f7e4f2f1e
Tracker:
udp://tracker.publicbt.com:80/announce
Alternate:
This file may be available on Fast Download.
Share:
 
 
 
 
Not Rated: Rate this torrent!
 
Click here to
Download
up to 10X FASTER
Sergeant York (1941) Colorized

Description




General
Complete name : Colorized Sergeant York (1941) Colorized.avi
Format : AVI
Format/Info : Audio Video Interleave
File size : 1.06 GiB
Duration : 2h 13mn
Overall bit rate mode : Variable
Overall bit rate : 1 141 Kbps

Video
ID : 0
Format : MPEG-4 Visual
Format settings, BVOP : 1
Format settings, QPel : No
Format settings, GMC : No warppoints
Format settings, Matrix : Default (H.263)
Muxing mode : Packed bitstream
Codec ID : DX50
Codec ID/Hint : DivX 5
Duration : 2h 13mn
Bit rate : 1 006 Kbps
Width : 640 pixels
Height : 480 pixels
Display aspect ratio : 4:3
Frame rate : 29.970 fps
Color space : YUV
Chroma subsampling : 4:2:0
Bit depth : 8 bits
Scan type : Progressive
Compression mode : Lossy
Bits/(Pixel*Frame) : 0.109
Stream size : 959 MiB (88%)
Title : Video
Writing library : DivX 5.2.0 (DrDivX 105) (UTC 2004-07-17)

Audio
ID : 1
Format : MPEG Audio
Format version : Version 1
Format profile : Layer 3
Mode : Joint stereo
Mode extension : MS Stereo
Codec ID : 55
Codec ID/Hint : MP3
Duration : 2h 13mn
Bit rate mode : Variable
Bit rate : 128 Kbps
Channel(s) : 2 channels
Sampling rate : 44.1 KHz
Compression mode : Lossy
Stream size : 116 MiB (11%)
Alignment : Aligned on interleaves
Interleave, duration : 26 ms (0.78 video frame)
Interleave, preload duration : 479 ms
Title : Audio