The Help (2011)

Torrent Download
 

Direct Download!

- might also be available on usenet

 

 

User:
 
Added:3 years ago
Peers:3 seeds 3 leeches
Last Update:
1 year ago
Health:
 
Total size:
691.02 MB
Category:
Hash:
f62c0b7b276e162ef701c96bc66662f303512325
Tracker:
udp://tracker.publicbt.com:80/announce
Alternate:
This file may be available on Fast Download.
Share:
 
 
 
 
Torrent Rating: 5.0/10 (1 vote cast)
 
Click here to
Download
up to 10X FASTER
The Help (2011)

Description

x x x xxxxxxx
x x x x x
x x x x x
x x x xxxxxxx
x x x x
x x x x
x x x
ere we are with a nice encode of this one for you all. Now for the video we just made a script
containing white balance, rgb eq, sharpness, chroma, brightness, contrast ect. Not a great video, but watchable.
The video was missing in 2 spots for about 30-40 seconds each, but nothing is missed really. The audio
we got from a friend thanks bro... With the audio it was just a matter of syncing it to the video.
Enjoy ;)
Ripper ...........:Lamer
IMDB Rating.......:4.9/10
Video Codec.......:XVID
Release Date......:16/02/11
Audio Codec.......:AC-3
Theatre Date......:14/01/11
Audio Bitrate.....:256 Runtime...........:1h 42mn
Subtitles.........:NIL Language..........:ENGLISH
Resolution........:688 x 384
IMDb URL..........:http://www.imdb.com/title/tt1578/
DETAILS:
Video
ID : 0
Format : MPEG-4 Visual
Format profile : Advanced Simple@L5
Format settings, BVOP : Yes
Format settings, QPel : No
Format settings, GMC : No warppoints
Format settings, Matrix : Default (MPEG)
Muxing mode : Packed bitstream
Codec ID : XVID
Codec ID/Hint : XviD
Duration : 1h 42mn
Bit rate : 1 786 Kbps
Width : 688 pixels
Height : 384 pixels
Display aspect ratio : 16:9
Frame rate : 25.000 fps
Color space : YUV
Chroma subsampling : 4:2:0
Bit depth : 8 bits
Scan type : Progressive
Bits/(Pixel*Frame) : 0.270
Stream size : 1.28 GiB (87%)
Writing library : XviD 61
Audio
ID : 1
Format : AC-3
Format/Info : Audio Coding 3
Mode extension : CM (complete main)
Codec ID : 2000
Duration : 1h 42mn
Bit rate mode : Constant
Bit rate : 256 Kbps
Channel(s) : 2 channels
Channel positions : Front: L R
Sampling rate : 48.0 KHz
Bit depth : 16 bits
Stream size : 188 MiB (12%)
Alignment : Aligned on interleaves
Interleave, duration : 40 ms (1.00 video frame)
Interleave, preload duration : 512 ms