Don Omar - Zumba Campaign [Music Video] 1080p [Sbyky]

Torrent Download

 

User:
 
Added:1 year ago
Peers:1 seeds 4 leeches
Last Update:
1 year ago
Health:
 
Total size:
167.63 MB
Category:
Hash:
3215a72b5b477bcbfd31b4e78e9dfe6e68ace023
Tracker:
udp://tracker.publicbt.com:80/announce
Alternate:
This file may be available on Fast Download.
Share:
 
 
 
 
Torrent Rating: 10.0/10 (1 vote cast)
 
Click here to
Download
up to 10X FASTER
Don Omar - Zumba Campaign [Music Video] 1080p [Sbyky]

Description



General
Complete name : Don Omar - Zumba Campaign [Music Video] 1080p [Sbyky].mp4
Format : MPEG-4
Format profile : Base Media / Version 2
Codec ID : mp42
File size : 168 MiB
Duration : 3mn 54s
Overall bit rate mode : Variable
Overall bit rate : 6 007 Kbps
Encoded date : UTC 2013-04-08 04:56:27
Tagged date : UTC 2013-04-08 04:56:27
Video
ID : 1
Format : AVC
Format/Info : Advanced Video Codec
Format profile : [email protected]
Format settings, CABAC : Yes
Format settings, ReFrames : 1 frame
Codec ID : avc1
Codec ID/Info : Advanced Video Coding
Duration : 3mn 54s
Bit rate : 5 813 Kbps
Maximum bit rate : 11.1 Mbps
Width : 1 920 pixels
Height : 1 080 pixels
Display aspect ratio : 16:9
Frame rate mode : Constant
Frame rate : 23.976 fps
Color space : YUV
Chroma subsampling : 4:2:0
Bit depth : 8 bits
Scan type : Progressive
Bits/(Pixel*Frame) : 0.117
Stream size : 162 MiB (97%)
Tagged date : UTC 2013-04-08 04:56:40
Audio
ID : 2
Format : AAC
Format/Info : Advanced Audio Codec
Format profile : LC
Codec ID : 40
Duration : 3mn 54s
Bit rate mode : Variable
Bit rate : 192 Kbps
Maximum bit rate : 202 Kbps
Channel(s) : 2 channels
Channel positions : Front: L R
Sampling rate : 44.1 KHz
Compression mode : Lossy
Stream size : 5.36 MiB (3%)
Title : IsoMedia File Produced by Google, 5-11-2011
Encoded date : UTC 2013-04-08 04:56:37
Tagged date : UTC 2013-04-08 04:56:40
Shared By Sbyky