Don Omar - Zumba Campaign [Music Video] 720p [Sbyky]

Torrent Download

 

User:
 
Added:1 year ago
Peers:2 seeds 2 leeches
Last Update:
1 year ago
Health:
 
Total size:
87.02 MB
Category:
Hash:
c5af395dd8d716e7a68999ed063e2e3b657e00c9
Tracker:
udp://tracker.publicbt.com:80/announce
Alternate:
This file may be available on Fast Download.
Share:
 
 
 
 
Not Rated: Rate this torrent!
 
Click here to
Download
up to 10X FASTER
Don Omar - Zumba Campaign [Music Video] 720p [Sbyky]

Description



General
Complete name : Don Omar - Zumba Campaign [Music Video] 720p [Sbyky].mp4
Format : MPEG-4
Format profile : Base Media / Version 2
Codec ID : mp42
File size : 87.0 MiB
Duration : 3mn 54s
Overall bit rate mode : Variable
Overall bit rate : 3 119 Kbps
Encoded date : UTC 2013-04-08 04:56:04
Tagged date : UTC 2013-04-08 04:56:04
Video
ID : 1
Format : AVC
Format/Info : Advanced Video Codec
Format profile : [email protected]
Format settings, CABAC : Yes
Format settings, ReFrames : 1 frame
Codec ID : avc1
Codec ID/Info : Advanced Video Coding
Duration : 3mn 54s
Bit rate : 2 924 Kbps
Maximum bit rate : 5 713 Kbps
Width : 1 280 pixels
Height : 720 pixels
Display aspect ratio : 16:9
Frame rate mode : Constant
Frame rate : 23.976 fps
Color space : YUV
Chroma subsampling : 4:2:0
Bit depth : 8 bits
Scan type : Progressive
Bits/(Pixel*Frame) : 0.132
Stream size : 81.6 MiB (94%)
Tagged date : UTC 2013-04-08 04:56:10
Audio
ID : 2
Format : AAC
Format/Info : Advanced Audio Codec
Format profile : LC
Codec ID : 40
Duration : 3mn 54s
Bit rate mode : Variable
Bit rate : 192 Kbps
Maximum bit rate : 202 Kbps
Channel(s) : 2 channels
Channel positions : Front: L R
Sampling rate : 44.1 KHz
Compression mode : Lossy
Stream size : 5.36 MiB (6%)
Title : IsoMedia File Produced by Google, 5-11-2011
Encoded date : UTC 2013-04-08 04:56:08
Tagged date : UTC 2013-04-08 04:56:10
Shared By Sbyky