Mariah Carey Ft. Miguel - #Beautiful [Music Video] 1080p [Sbyky]

Torrent Download

 

User:
 
Added:1 year ago
Peers:1 seeds 0 leeches
Last Update:
1 year ago
Health:
 
Total size:
127.84 MB
Category:
Hash:
2d3fa26b75b0c8787806e87716f66ed9d1606f13
Tracker:
udp://tracker.publicbt.com:80/announce
Alternate:
This file may be available on Fast Download.
Share:
 
 
 
 
Not Rated: Rate this torrent!
 
Click here to
Download
up to 10X FASTER
Mariah Carey Ft. Miguel - #Beautiful [Music Video] 1080p [Sbyky]

Description



General
Complete name : Mariah Carey Ft. Miguel - #Beautiful [Music Video] 1080p [Sbyky].mp4
Format : MPEG-4
Format profile : Base Media / Version 2
Codec ID : mp42
File size : 128 MiB
Duration : 3mn 34s
Overall bit rate mode : Variable
Overall bit rate : 4 988 Kbps
Encoded date : UTC 2013-05-07 17:12:54
Tagged date : UTC 2013-05-07 17:12:54

Video
ID : 1
Format : AVC
Format/Info : Advanced Video Codec
Format profile : [email protected]
Format settings, CABAC : Yes
Format settings, ReFrames : 1 frame
Codec ID : avc1
Codec ID/Info : Advanced Video Coding
Duration : 3mn 34s
Bit rate : 4 794 Kbps
Maximum bit rate : 10.7 Mbps
Width : 1 920 pixels
Height : 1 080 pixels
Display aspect ratio : 16:9
Frame rate mode : Constant
Frame rate : 23.976 fps
Color space : YUV
Chroma subsampling : 4:2:0
Bit depth : 8 bits
Scan type : Progressive
Bits/(Pixel*Frame) : 0.096
Stream size : 123 MiB (96%)
Tagged date : UTC 2013-05-07 17:13:08

Audio
ID : 2
Format : AAC
Format/Info : Advanced Audio Codec
Format profile : LC
Codec ID : 40
Duration : 3mn 34s
Bit rate mode : Variable
Bit rate : 192 Kbps
Maximum bit rate : 206 Kbps
Channel(s) : 2 channels
Channel positions : Front: L R
Sampling rate : 44.1 KHz
Compression mode : Lossy
Stream size : 4.92 MiB (4%)
Title : IsoMedia File Produced by Google, 5-11-2011
Encoded date : UTC 2013-05-07 17:13:03
Tagged date : UTC 2013-05-07 17:13:08

Shared By Sbyky




Related Torrents


torrent name
size
files
age
seed
leech



9






Mariah Carey Feat Miguel - #Beautiful {2013-Single}

Posted by Oz  in Music > Mp3


7.81 MB
1
6 days
510
27




1






Mariah Carey ft.Miguel - #Beautiful (2013.Pop)

in Movies > Music videos


128.54 MB
2
2 days
180
84




1






Mariah Carey - #Beautiful (feat. Miguel) - Single [iTunes Plus AAC M4A]

Posted by SneaKyMK  in Music > Mp3


6.81 MB
2
6 days
66
5