katy perry   arrow 1   once upon a time   beyonce   arrow   R   happy   2014   justin timberlake   lil wayne   resurrection   CosmoS   ابن القنصل   The Hobbit   Robocop (2014)   captain america   pitbull   captain america 2   FRENCH   Timber   revenge   ita   Tupac   Scott   trey songz   captain america the winter soldier   Drake   classic   that awkward moment   rio 2   taylor swift   thor the dark world   the big bang theory   nickelback   usher   revolution   lone survivor   LOVE   The Walking Dead   enrique iglesias   50 cent   journey   game of thrones   captain phillips   Windows 8   WWE   Thor   TRUE DETECTIVE   frozen   vikings   hannibal   windows 7   son of god   r kelly   august alsina   300 rise of an empire   winrar   Sketch   anchorman 2   miley cyrus   rick ross   Belle   Blake Shelton   criminal minds   robocop   the lego movie   nelly   the.hobbit   justified   future   riddick   47 ronin   Non stop   Embrace Embrace   luke bryan   ride along   47.ronin   grimm   WWE WrestleMania   noah   compilation   pink   lesbian   yify   Chris Brown   pompeii   windows 8.1   iTALiAN   nicki minaj   divergent   Dark Horse   american hustle   Need for speed   john legend   Eminem   the wolf of wall street   bruno mars   the nut job   2013   Florida Georgia Line  


Once Upon A Time S02E22 And Straight On 'Til Morning HDTV 720p 1280X720 mpg4

Torrent Download

 

User:
 
Added:11 months ago
Peers:1 seeds 3 leeches
Last Update:
11 months ago
Health:
 
Total size:
515.65 MB
Category:
Hash:
df65856dff05a500dc54485015e604a000ad9d87
Tracker:
udp://tracker.publicbt.com:80/announce
Rapidshare:
This file may be available on rapidshare.
Share:
 
 
 
 
Not Rated: Rate this torrent!
 
Click here to
Download
up to 10X FASTER
Once Upon A Time S02E22 And Straight On 'Til Morning HDTV 720p 1280X720 mpg4

Description

And Straight On 'Til Morning
The inhabitants of Storybrooke brace themselves for the end when Greg and Tamara detonate the trigger Regina had placed within the curse, with the annihilation of the town and its residents imminent; and Mr. Gold mourns the loss of his son, Bae/Neal. Meanwhile, back in Neverland of the past, Hook discovers his connection to a young Bae after he rescues him from the sea and soon realizes that the Lost Boys are in hot pursuit of the boy.

General
Complete name : Once Upon A Time S02E22 And Straight On 'Til Morning HDTV 720p 1280X720.mp4
Format : MPEG-4
Format profile : Base Media
Codec ID : isom
File size : 513 MiB
Duration : 43mn 13s
Overall bit rate : 1 659 Kbps
Writing application : Lavf54.59.106

Video
ID : 1
Format : AVC
Format/Info : Advanced Video Codec
Format profile : [email protected]
Format settings, CABAC : Yes
Format settings, ReFrames : 5 frames
Codec ID : avc1
Codec ID/Info : Advanced Video Coding
Duration : 43mn 13s
Bit rate mode : Variable
Bit rate : 1 525 Kbps
Width : 1 280 pixels
Height : 720 pixels
Display aspect ratio : 16:9
Frame rate mode : Variable
Frame rate : 23.976 fps
Minimum frame rate : 2.336 fps
Maximum frame rate : 125.000 fps
Color space : YUV
Chroma subsampling : 4:2:0
Bit depth : 8 bits
Scan type : Progressive
Bits/(Pixel*Frame) : 0.069
Stream size : 471 MiB (92%)

Audio
ID : 2
Format : AAC
Format/Info : Advanced Audio Codec
Format profile : LC
Codec ID : 40
Duration : 43mn 13s
Bit rate mode : Constant
Bit rate : 128 Kbps
Channel(s) : 2 channels
Channel positions : Front: L R
Sampling rate : 48.0 KHz
Compression mode : Lossy
Stream size : 39.6 MiB (8%)



Related Torrents


torrent name
size
files
age
seed
leech










Straight on till Morning

in Movies


781.23 MB
1
2 years
0
1











Straight On 'Til Morning

in Music


43.56 MB
14
3 years
4
0