drake   criminal minds   devil may cry   dark horse   prince   wwe wrestlemania   once upon a time   beyonce   ride along   Belle   love   winrar   arrow   justified   arrow 1   Pink   47 Ronin   resurrection   lil wayne   usher   ita   The Walking Dead   queen   lone survivor   Riddick   thor   pompeii   game of thrones s04e03   metallica   taylor swift   cosmos   need for speed   trey songz   rihanna   future   1080p   classic   iTALiAN   Embrace Embrace   katy perry   بنطلون جولييت   french   chris brown   shameless   2014   r kelly   miley cyrus   the nut job   the.hobbit   the wolf of wall street   300 rise of an empire   true detective   lesbian   2013 nl   Eminem   Rio 2   compilation   thor the dark world   revolution   windows 7   blake shelton   noah   pitbull   divergent   game of thrones   frozen   captain phillips   50 cent   rick ross   47.Ronin   Revenge   bruno mars   captain america the winter soldier   the 100   that awkward moment   Robocop (2014)   windows 8   enrique iglesias   captain america   non stop   arrow s02e20   john legend   2013   tupac   nelly   happy   THE BIG BANG THEORY   The Hobbit   windows 8.1   yify   wiz khalifa   jennifer lopez   Sketch   anchorman 2   robocop   wwe   the lego movie   nickelback   the wolf of wall street 2013   grimm  


Orange Is The New Black S01E01 x264 [MKV,AC3] Ehhhh

Torrent Download

 

User:
 
Added:9 months ago
Peers:1 seeds 29 leeches
Last Update:
9 months ago
Health:
 
Total size:
436.64 MB
Category:
Hash:
853DE7A3E65D261276B26E505B56586D02DEDC36
Rapidshare:
This file may be available on rapidshare.
Share:
 
 
 
 
Torrent Rating: 1.0/10 (1 vote cast)
 
Click here to
Download
up to 10X FASTER
Orange Is The New Black S01E01 x264 [MKV,AC3] Ehhhh

Description


Orange Is the New Black revolves around Piper Chapman (Schilling), a New York woman, who is sent to a women's federal prison for possessing a suitcase full of drug money for Alex Vause (Prepon), an international drug smuggler and Chapman's one-time lover. Sentenced to serve a fifteen-month sentence, Chapman must survive the hardships of prison life, as she may have to be a different person to do so.

Creator Jenji Kohan hasn't just given us an intriguingly compromised lead character, she's also created an entire world, an alternately sly and sad pressure cooker that offers an enticing range of complicated relationships and unstable power dynamics. But what may be most impressive is the fact that Kohan and her writers have fun with a whole array of "Women in Prison" tropes while allowing many of the central characters to have dignity, depth and even moments of pathos. This mixture of melodrama, subversive comedy and drama could have been a big ol' mess, but "Orange" ends up a rich, flavorful stew.

Series Cast

Taylor Schilling ... Piper Chapman / ... (13 episodes, 2013)

Jason Biggs ... Larry Bloom (13 episodes, 2013)

Michelle Hurst ... Miss Claudette Pelage (13 episodes, 2013)

Kate Mulgrew ... Galina 'Red' Reznikov (13 episodes, 2013)

Natasha Lyonne ... Nicky Nichols (13 episodes, 2013)

Laura Prepon ... Alex Vause (13 episodes, 2013)

Michael Harney ... Sam Healy (13 episodes, 2013)
Lea DeLaria ... Carrie 'Big Boo' Black (13 episodes, 2013)

Taryn Manning (13 episodes, 2013)

Dascha Polanco ... Dayanara Diaz (13 episodes, 2013)

Samira Wiley ... Poussey Washington (13 episodes, 2013)

Uzo Aduba ... Suzanne 'Crazy Eyes' Warren (12 episodes, 2013)

Joel Garland ... O'Neill (12 episodes, 2013)


General
Unique ID : 222459273439176424902431778336814806446 (0xA75C18FD1EDF6F468F7636415EE635AE)
Complete name : J:Downers┬╡torrent000 TVOrange Is The New BlackOrange Is The New Black Season 1 - COMPLETEOrange Is The New Black S01E01 x264 [MKV,AC3] EhhhhOrange Is The New Black - S01E01 - Pilot .mkv
Format : Matroska
Format version : Version 4 / Version 2
File size : 431 MiB
Duration : 49mn 53s
Overall bit rate : 1 209 Kbps
Encoded date : UTC 2013-07-12 10:44:28
Writing application : mkvmerge v6.2.0 ('Promised Land') built on Apr 28 2013 12:22:01
Writing library : libebml v1.3.0 + libmatroska v1.4.0

Video
ID : 1
Format : AVC
Format/Info : Advanced Video Codec
Format profile : [email protected]
Format settings, CABAC : Yes
Format settings, ReFrames : 14 frames
Codec ID : V_MPEG4/ISO/AVC
Duration : 49mn 53s
Bit rate : 1 010 Kbps
Width : 1 280 pixels
Height : 720 pixels
Display aspect ratio : 16:9
Frame rate mode : Constant
Frame rate : 23.976 fps
Color space : YUV
Chroma subsampling : 4:2:0
Bit depth : 8 bits
Scan type : Progressive
Bits/(Pixel*Frame) : 0.046
Stream size : 354 MiB (82%)
Writing library : x264 core 130 r2273 b3065e6
Encoding settings : cabac=1 / ref=15 / deblock=1:0:0 / analyse=0x3:0x133 / me=umh / subme=10 / psy=1 / psy_rd=1.00:0.00 / mixed_ref=1 / me_range=24 / chroma_me=1 / trellis=2 / 8x8dct=1 / cqm=0 / deadzone=21,11 / fast_pskip=1 / chroma_qp_offset=-2 / threads=3 / lookahead_threads=1 / sliced_threads=0 / nr=0 / decimate=1 / interlaced=0 / bluray_compat=0 / constrained_intra=0 / bframes=7 / b_pyramid=1 / b_adapt=2 / b_bias=0 / direct=3 / weightb=1 / open_gop=0 / weightp=2 / keyint=250 / keyint_min=25 / scenecut=40 / intra_refresh=0 / rc_lookahead=60 / rc=abr / mbtree=1 / bitrate=1010 / ratetol=1.0 / qcomp=0.60 / qpmin=0 / qpmax=69 / qpstep=4 / ip_ratio=1.40 / aq=1:1.00
Default : Yes
Forced : No

Audio
ID : 2
Format : AC-3
Format/Info : Audio Coding 3
Mode extension : CM (complete main)
Format settings, Endianness : Big
Codec ID : A_AC3
Duration : 49mn 53s
Bit rate mode : Constant
Bit rate : 192 Kbps
Channel(s) : 2 channels
Channel positions : Front: L R
Sampling rate : 48.0 KHz
Bit depth : 16 bits
Compression mode : Lossy
Stream size : 68.5 MiB (16%)
Default : Yes
Forced : No