Marvel One Shot Agent Carter 2013 HDTV 720P AAC MP4 MURDER

Torrent Download

 

User:
 
Added:11 months ago
Peers:0 seeds 0 leeches
Last Update:
11 months ago
Health:
 
Total size:
236.47 MB
Category:
Hash:
EFFEC342B0131D6A4E5979CFAA1F41983BA13C03
Alternate:
This file may be available on Fast Download.
Share:
 
 
 
 
Not Rated: Rate this torrent!
 
Click here to
Download
up to 10X FASTER
Marvel One Shot Agent Carter 2013 HDTV 720P AAC MP4 MURDER

Description

SHORT FLICK...












[font="Comic Sans MS"http://www.imdb.com/title/tt3067038/


Marvel One-Shot: Agent Carter (2013) SHORT
Video Short | Action | Adventure - 24 September 2013 (USA)
8.6 Your rating: -/10 Ratings: 8.6/10 from 41 users
Reviews: 1 user | 1 critic
Director: Louis D'Esposito
Writer: Eric Pearson
Stars: Hayley Atwell, Bradley Whitford, Dominic Cooper

eneral
Complete name : Marvel One Shot Agent Carter 2013 HDTV 720P AAC MP4 MURDER.mp4
Format : MPEG-4
Format profile : Base Media
Codec ID : isom
File size : 232 MiB
Duration : 15mn 29s
Overall bit rate mode : Variable
Overall bit rate : 2 095 Kbps
Encoded date : UTC 2013-08-22 19:01:46
Tagged date : UTC 2013-08-22 19:01:46

Video
ID : 1
Format : AVC
Format/Info : Advanced Video Codec
Format profile : [email protected]
Format settings, CABAC : Yes
Format settings, ReFrames : 4 frames
Format settings, GOP : M=1, N=3
Codec ID : avc1
Codec ID/Info : Advanced Video Coding
Duration : 15mn 29s
Bit rate : 2 000 Kbps
Maximum bit rate : 12.6 Mbps
Width : 1 280 pixels
Height : 720 pixels
Display aspect ratio : 16:9
Frame rate mode : Constant
Frame rate : 23.976 fps
Color space : YUV
Chroma subsampling : 4:2:0
Bit depth : 8 bits
Scan type : Progressive
Bits/(Pixel*Frame) : 0.091
Stream size : 221 MiB (95%)
Title : One.Shot.Agent.carter.HR-HDTV
Writing library : x264 core
Encoded date : UTC 2013-08-22 19:01:46
Tagged date : UTC 2013-08-22 19:01:55

Audio
ID : 2
Format : AAC
Format/Info : Advanced Audio Codec
Format profile : LC
Codec ID : 40
Duration : 15mn 29s
Bit rate mode : Variable
Bit rate : 96.0 Kbps
Maximum bit rate : 128 Kbps
Channel count : 2 channels
Channel positions : Front: L R
Sampling rate : 48.0 KHz
Compression mode : Lossy
Stream size : 10.6 MiB (5%)
Encoded date : UTC 2013-08-22 17:05:14
Tagged date : UTC 2013-08-22 19:01:55

SOURCE WAS A FELLOW PIRATE
RESPECT TO HOPE..........THANKS [/font]