Kick Ass 2 2013 720p WEBRiP XViD-UNiQUE

Torrent Download
 


 

User:
 
Added:1 year ago
Peers:2 seeds 43 leeches
Last Update:
1 year ago
Health:
 
Total size:
2.41 GB
Category:
Hash:
d41ba9debf910f9e9ec0f0a54c66b593c28a9abe
Tracker:
udp://tracker.publicbt.com:80/announce
Alternate:
This file may be available on Fast Download.
Share:
 
 
 
 
Not Rated: Rate this torrent!
 
Click here to
Download
up to 10X FASTER
Kick Ass 2 2013 720p WEBRiP XViD-UNiQUE

Description

Format : AVI
Format/Info : Audio Video Interleave
Format profile : OpenDML
File size : 2.38 GiB
Duration : 1h 38mn
Overall bit rate : 3 455 Kbps
Writing application : VirtualDubMod 1.5.10.2 (build 2540/release)
Writing library : VirtualDubMod build 2540/release

Video
ID : 0
Format : MPEG-4 Visual
Format profile : Advanced Simple@L5
Format settings, BVOP : 2
Format settings, QPel : No
Format settings, GMC : No warppoints
Format settings, Matrix : Default (H.263)
Muxing mode : Packed bitstream
Codec ID : XVID
Codec ID/Hint : XviD
Duration : 1h 38mn
Bit rate : 3 315 Kbps
Width : 1 280 pixels
Height : 520 pixels
Display aspect ratio : 2.462
Frame rate : 25.000 fps
Color space : YUV
Chroma subsampling : 4:2:0
Bit depth : 8 bits
Scan type : Progressive
Compression mode : Lossy
Bits/(Pixel*Frame) : 0.199
Stream size : 2.29 GiB (96%)
Writing library : XviD 64

Audio
ID : 1
Format : AC-3
Format/Info : Audio Coding 3
Mode extension : CM (complete main)
Format settings, Endianness : Big
Codec ID : 2000
Duration : 1h 38mn
Bit rate mode : Constant
Bit rate : 128 Kbps
Channel(s) : 2 channels
Channel positions : Front: L R
Sampling rate : 44.1 KHz
Bit depth : 16 bits
Compression mode : Lossy
Stream size : 90.4 MiB (4%)
Alignment : Split accross interleaves
Interleave, duration : 40 ms (1.00 video frame)
Interleave, preload duration : 500 ms


Source Used SmY- Thanks