Better Off Dead (1985) [1080p 5.1SS]

Torrent Download
 

Direct Download!

- might also be available on usenet


 

User:
 
Added:11 months ago
Peers:1 seeds 2 leeches
Last Update:
11 months ago
Health:
 
Total size:
6.74 GB
Category:
Hash:
3d7c70ac3a328b9c3b0f0be65f9f85aeab68f82e
Tracker:
udp://tracker.publicbt.com:80/announce
Alternate:
This file may be available on Fast Download.
Share:
 
 
 
 
Not Rated: Rate this torrent!
 
Click here to
Download
up to 10X FASTER
Better Off Dead (1985) [1080p 5.1SS]

Description

General
Format : MPEG-4
Format profile : Base Media / Version 2
Codec ID : mp42
File size : 6.74 GiB
Duration : 1h 37mn
Overall bit rate mode : Variable
Overall bit rate : 9 955 Kbps

Video
ID : 1
Format : AVC
Format/Info : Advanced Video Codec
Format profile : [email protected]
Format settings, CABAC : Yes
Format settings, ReFrames : 1 frame
Format settings, GOP : M=1, N=24
Codec ID : avc1
Codec ID/Info : Advanced Video Coding
Duration : 1h 36mn
Bit rate mode : Variable
Bit rate : 9 497 Kbps
Width : 1 920 pixels
Height : 1 080 pixels
Display aspect ratio : 16:9
Frame rate mode : Variable
Frame rate : 23.976 fps
Minimum frame rate : 23.974 fps
Maximum frame rate : 23.981 fps
Color space : YUV
Chroma subsampling : 4:2:0
Bit depth : 8 bits
Scan type : Progressive
Bits/(Pixel*Frame) : 0.191
Stream size : 6.43 GiB (95%)
Writing library : x264 core
Color primaries : BT.709
Transfer characteristics : BT.709
Matrix coefficients : BT.709

Audio
ID : 2
Format : AC-3
Format/Info : Audio Coding 3
Mode extension : CM (complete main)
Format settings, Endianness : Big
Codec ID : ac-3
Duration : 1h 37mn
Bit rate mode : Constant
Bit rate : 448 Kbps
Channel(s) : 6 channels
Channel positions : Front: L C R, Side: L R, LFE
Sampling rate : 48.0 KHz
Bit depth : 16 bits
Compression mode : Lossy
Stream size : 311 MiB (5%)
Language : English

Text #1
ID : 3
Format : mp4s
Codec ID : E0
Duration : 1h 33mn
Bit rate mode : Variable
Bit rate : 9 361 bps
Maximum bit rate : 4 249 Mbps
Stream size : 6.24 MiB (0%)
Language : English