how to train your dragon 2   ita   taylor swift shake it off   THE FAULT IN OUR STARS   jason aldean   wiz khalifa   Miley Cyrus   drake   lady gaga   pink   thor   the other woman   anaconda nicki minaj   FUTURE   suits   nicki minaj   schoolboy q   22 jump street   rick ross   nicki minaj anaconda   young jeezy   Windows 7   iggy azalea   bang bang   break free ariana grande   The walking dead   wiz khalifa blacc hollywood   lil wayne   let's be cops   lesbian   trey songz   ariana grande   Lego Movie   lucy   italian   Lone Survivor   pompeii   migos   Happy   katy perry   dawn of the planet of the apes   need for speed   x men days of future past   frozen   metallica   godzilla   edge of tomorrow   french   extant   the amazing spider man 2   50 cent   blended   godzilla 2014   taylor swift   divergent   black widow iggy azalea   neighbors   rich homie quan   rush   suits s04e10   into the storm   teenage mutant ninja turtles   sam smith   Eminem   thor the dark world   florida georgia line   CLASSIC   blacc hollywood   Linkin Park   young thug   robocop   HERCULES   august alsina   yify   stay with me   2014   no flex zone   guardians of the galaxy   desi   enrique iglesias   yify 1080p   kevin gates   all about that bass   rihanna   Chris Brown   usher   asian   Maleficent   transformers 4   transformers 4   pitbull   gravity   meek mill   jay z   luke bryan   noah   beyonce   anaconda   shake it off taylor swift   true blood  


Bhoothnath Returns 2014 Hindi Movies SCamRip with Sample ~ ☻rDX☻

Torrent Download

 

User:
 
Added:4 months ago
Peers:8 seeds 734 leeches
Last Update:
4 months ago
Health:
 
Total size:
704.30 MB
Category:
Hash:
5D9BCE190F5CC6F5A18881248757320FD7C9BF13
Alternate:
This file may be available on Fast Download.
Share:
 
 
 
 
Torrent Rating: 6.0/10 (3 votes cast)
 
Click here to
Download
up to 10X FASTER
Bhoothnath Returns 2014 Hindi Movies SCamRip with Sample ~ ☻rDX☻

Description



Bhoothnath Returns 2014 Hindi Movies SCamRip with Sample ~ ☻rDX☻

Screen Shots

http://moviesreview.cu.cc/2014/4/BhoothnathReturns/1.html
http://moviesreview.cu.cc/2014/4/BhoothnathReturns/2.html
http://moviesreview.cu.cc/2014/4/BhoothnathReturns/3.html
http://moviesreview.cu.cc/2014/4/BhoothnathReturns/4.html
http://moviesreview.cu.cc/2014/4/BhoothnathReturns/5.html
http://moviesreview.cu.cc/2014/4/BhoothnathReturns/6.html
http://moviesreview.cu.cc/2014/4/BhoothnathReturns/7.html
http://moviesreview.cu.cc/2014/4/BhoothnathReturns/8.html
http://moviesreview.cu.cc/2014/4/BhoothnathReturns/9.html
http://moviesreview.cu.cc/2014/4/BhoothnathReturns/10.html

All rDX torrents are Seeding From the 1Gbps Seedbox 24X7



Format : Matroska
Format version : Version 4 / Version 2
File size : 696 MiB
Duration : 2h 12mn
Overall bit rate mode : Variable
Overall bit rate : 736 Kbps
Movie name : Bhoothnath Returns 2014 Hindi Movies SCamRip ~ rDX ~

Video
ID : 1
Format : MPEG Video
Format version : Version 2
Format profile : Main@Main
Format settings, BVOP : No
Format settings, Matrix : Default
Codec ID : V_MPEG2
Codec ID/Info : MPEG 1 or 2 Video
Duration : 2h 12mn
Bit rate mode : Variable
Bit rate : 593 Kbps
Maximum bit rate : 9 672 Kbps
Width : 352 pixels
Height : 288 pixels
Display aspect ratio : 4:3
Frame rate mode : Constant
Frame rate : 25.000 fps
Standard : PAL
Color space : YUV
Chroma subsampling : 4:2:0
Bit depth : 8 bits
Scan type : Progressive
Compression mode : Lossy
Bits/(Pixel*Frame) : 0.234
Stream size : 561 MiB (81%)
Title : ~ rDX ~
Default : Yes
Forced : No

Audio
ID : 2
Format : MPEG Audio
Format version : Version 1
Format profile : Layer 2
Codec ID : A_MPEG/L2
Codec ID/Hint : MP2
Duration : 2h 12mn
Bit rate mode : Constant
Bit rate : 128 Kbps
Channel(s) : 2 channels
Sampling rate : 48.0 KHz
Compression mode : Lossy
Stream size : 121 MiB (17%)
Title : ~ rDX ~
Default : Yes
Forced : No