Bhoothnath Returns 2014 Hindi Movies SCamRip with Sample ~ ☻rDX☻

Torrent Download

 

User:
 
Added:8 months ago
Peers:8 seeds 734 leeches
Last Update:
8 months ago
Health:
 
Total size:
704.30 MB
Category:
Hash:
5D9BCE190F5CC6F5A18881248757320FD7C9BF13
Alternate:
This file may be available on Fast Download.
Share:
 
 
 
 
Torrent Rating: 6.0/10 (3 votes cast)
 
Click here to
Download
up to 10X FASTER
Bhoothnath Returns 2014 Hindi Movies SCamRip with Sample ~ ☻rDX☻

Description



Bhoothnath Returns 2014 Hindi Movies SCamRip with Sample ~ ☻rDX☻

Screen Shots

http://moviesreview.cu.cc/2014/4/BhoothnathReturns/1.html
http://moviesreview.cu.cc/2014/4/BhoothnathReturns/2.html
http://moviesreview.cu.cc/2014/4/BhoothnathReturns/3.html
http://moviesreview.cu.cc/2014/4/BhoothnathReturns/4.html
http://moviesreview.cu.cc/2014/4/BhoothnathReturns/5.html
http://moviesreview.cu.cc/2014/4/BhoothnathReturns/6.html
http://moviesreview.cu.cc/2014/4/BhoothnathReturns/7.html
http://moviesreview.cu.cc/2014/4/BhoothnathReturns/8.html
http://moviesreview.cu.cc/2014/4/BhoothnathReturns/9.html
http://moviesreview.cu.cc/2014/4/BhoothnathReturns/10.html

All rDX torrents are Seeding From the 1Gbps Seedbox 24X7



Format : Matroska
Format version : Version 4 / Version 2
File size : 696 MiB
Duration : 2h 12mn
Overall bit rate mode : Variable
Overall bit rate : 736 Kbps
Movie name : Bhoothnath Returns 2014 Hindi Movies SCamRip ~ rDX ~

Video
ID : 1
Format : MPEG Video
Format version : Version 2
Format profile : Main@Main
Format settings, BVOP : No
Format settings, Matrix : Default
Codec ID : V_MPEG2
Codec ID/Info : MPEG 1 or 2 Video
Duration : 2h 12mn
Bit rate mode : Variable
Bit rate : 593 Kbps
Maximum bit rate : 9 672 Kbps
Width : 352 pixels
Height : 288 pixels
Display aspect ratio : 4:3
Frame rate mode : Constant
Frame rate : 25.000 fps
Standard : PAL
Color space : YUV
Chroma subsampling : 4:2:0
Bit depth : 8 bits
Scan type : Progressive
Compression mode : Lossy
Bits/(Pixel*Frame) : 0.234
Stream size : 561 MiB (81%)
Title : ~ rDX ~
Default : Yes
Forced : No

Audio
ID : 2
Format : MPEG Audio
Format version : Version 1
Format profile : Layer 2
Codec ID : A_MPEG/L2
Codec ID/Hint : MP2
Duration : 2h 12mn
Bit rate mode : Constant
Bit rate : 128 Kbps
Channel(s) : 2 channels
Sampling rate : 48.0 KHz
Compression mode : Lossy
Stream size : 121 MiB (17%)
Title : ~ rDX ~
Default : Yes
Forced : No